<?xml version="1.0" encoding="UTF-8" standalone="no"?>
<!DOCTYPE svg  PUBLIC '-//W3C//DTD SVG 1.1//EN'  'http://www.w3.org/Graphics/SVG/1.1/DTD/svg11.dtd'>
<svg xmlns="http://www.w3.org/2000/svg">
<defs>
<font id="ITCAvantGardeStd-Demi" horiz-adv-x="600">
<font-face underline-position="-50" font-weight="600" descent="-200" panose-1="2 0 5 3 3 0 0 2 0 4" units-per-em="1000" unicode-range="U+0020-25CA" bbox="-123 -251.037 1222 1021" x-height="555" underline-thickness="50" font-family="ITCAvantGardeStd" ascent="800" cap-height="740"/>
<missing-glyph horiz-adv-x="0"/>
<glyph glyph-name=".notdef" horiz-adv-x="0"/>
<glyph glyph-name=".null" horiz-adv-x="0"/>
<glyph glyph-name="nonmarkingreturn" horiz-adv-x="1000"/>
<glyph glyph-name="space" horiz-adv-x="280" unicode=" "/>
<glyph glyph-name="exclam" horiz-adv-x="280" unicode="!" d="M206 0h-133v127h133v-127zM206 188h-133v552h133v-552z"/>
<glyph glyph-name="quotedbl" horiz-adv-x="360" unicode='&quot;' d="M152 740l-27 -296h-80l-26 296h133zM341 740l-26 -296h-82l-25 296h133z"/>
<glyph glyph-name="numbersign" horiz-adv-x="560" unicode="#" d="M335 408h-91l-16 -116h91zM525 503l-4 -95h-86l-16 -116h76l-4 -95h-86l-27 -197h-100l27 197h-91l-27 -197h-100l27 197h-85l4 95h95l16 116h-85l4 95h94l27 197h100l-27 -197h91l27 197h100l-27 -197h77z"/>
<glyph glyph-name="dollar" horiz-adv-x="560" unicode="$" d="M501 250q-1 -74 -41 -130t-111 -74v-132h-126v131q-77 21 -121 73t-44 131h132q2 -38 26 -62t63 -24q37 1 63 25t26 61q0 23 -8 39t-24 27q-16 9 -30 15t-38 13q-7 2 -11 3q-171 50 -171 198q0 67 36 117t101 68v128h126v-130q56 -18 90 -64t39 -107h-125q-17 61 -68 61 q-27 -1 -47 -21t-19 -48q0 -32 18 -48t55 -29q29 -10 52 -17q157 -49 157 -204z"/>
<glyph glyph-name="percent" horiz-adv-x="860" unicode="%" d="M285 575q-1 29 -21 49t-48 20q-29 0 -49 -20t-20 -50q1 -28 21 -48t48 -21q28 1 48 21t21 49zM711 166q0 30 -20 50t-49 20q-30 0 -50 -20t-20 -50q0 -28 21 -49t49 -21t48 20t21 50zM396 574q0 -74 -53 -127t-127 -53t-127 53t-53 127q0 75 52 128t128 53t128 -53 t52 -128zM632 740l-307 -740h-101l306 740h102zM822 166q0 -74 -53 -128t-127 -53q-75 0 -128 53t-53 128t53 128t128 53q76 0 128 -53t52 -128z"/>
<glyph glyph-name="ampersand" horiz-adv-x="680" unicode="&amp;" d="M373 197l-116 126q-42 -21 -66 -45t-24 -64q-1 -43 29 -71t73 -28q35 0 59 22t45 60zM364 566q0 29 -18 46t-47 17q-26 0 -44 -18t-18 -43q0 -16 10 -34q9 -18 17 -26l26 -26q23 12 36 20q14 8 26 26q12 17 12 38zM665 71l-97 -86l-102 111q-80 -111 -188 -111 q-100 0 -172 68t-72 167q0 70 36 120t103 89q-32 37 -47 67t-15 72q0 79 54 133t134 54q79 -1 135 -53t56 -130q0 -117 -117 -182l68 -76l72 123h148l-127 -224z"/>
<glyph glyph-name="quotesingle" horiz-adv-x="220" unicode="&apos;" d="M177 740l-26 -296h-81l-26 296h133z"/>
<glyph glyph-name="parenleft" horiz-adv-x="380" unicode="(" d="M350 -157q-44 15 -74 35t-65 58q-65 69 -101 166t-36 195q0 105 38 205t111 170q51 50 127 82v-144q-69 -56 -104 -138t-35 -174q1 -88 37 -176t102 -135v-144z"/>
<glyph glyph-name="parenright" horiz-adv-x="380" unicode=")" d="M313 300q-1 -104 -39 -204t-110 -171q-51 -50 -127 -82v144q69 56 104 138t35 174q0 89 -36 177t-103 134v144q44 -16 74 -36t65 -57q65 -69 101 -166t36 -195z"/>
<glyph glyph-name="asterisk" horiz-adv-x="440" unicode="*" d="M374 638l-1 -67l-101 5l56 -83l-61 -36l-46 92l-47 -92l-61 36l57 83l-102 -5l-1 67l102 -5l-55 83l56 39l51 -92l51 92l56 -39l-56 -83z"/>
<glyph glyph-name="plus" d="M552 193h-192v-193h-120v193h-192v120h192v193h120v-193h192v-120z" unicode="+"/>
<glyph glyph-name="comma" horiz-adv-x="280" unicode="," d="M206 -8q0 -61 -36 -97t-96 -36v67q36 8 47 22t11 52h-59v133h133v-141z"/>
<glyph glyph-name="hyphen" horiz-adv-x="420" unicode="-" d="M349 230h-278v118h278v-118z"/>
<glyph glyph-name="period" horiz-adv-x="280" unicode="." d="M206 0h-133v133h133v-133z"/>
<glyph glyph-name="slash" horiz-adv-x="460" unicode="/" d="M454 740l-314 -840h-134l313 840h135z"/>
<glyph glyph-name="zero" horiz-adv-x="560" unicode="0" d="M396 245v260q0 51 -32 87t-82 37q-55 -1 -86 -37t-31 -92v-252q-1 -59 29 -98t87 -39q57 -1 86 37t29 97zM529 506v-273q1 -109 -69 -179t-179 -69q-108 0 -188 81q-61 62 -61 174v266q0 112 70 180t183 69q106 1 175 -71t69 -178z"/>
<glyph glyph-name="one" horiz-adv-x="560" unicode="1" d="M363 0h-133v614h-93v126h226v-740z"/>
<glyph glyph-name="two" horiz-adv-x="560" unicode="2" d="M523 0h-479v126l264 246q82 76 82 146q0 49 -30 80t-78 31q-31 0 -58 -16t-41 -44t-14 -83h-132q-1 8 -1 24q0 102 70 174t173 71q102 -1 173 -71t71 -172q0 -72 -38 -132t-105 -120l-150 -134h293v-126z"/>
<glyph glyph-name="three" horiz-adv-x="560" unicode="3" d="M532 233q0 -106 -74 -177t-180 -71q-102 0 -173 68t-77 170h133q5 -47 39 -79t81 -33q48 0 83 36t35 84q0 61 -42 92t-105 31h-22v126h23q41 0 67 20t26 59q0 70 -66 70q-28 0 -46 -20t-20 -48h-133q12 140 129 182q36 12 68 12q82 0 142 -59t59 -141q0 -85 -64 -131 q57 -26 87 -76t30 -115z"/>
<glyph glyph-name="four" horiz-adv-x="560" unicode="4" d="M334 237v278h-2l-174 -278h176zM545 111h-78v-111h-133v111h-319v109l340 520h112v-503h78v-126z"/>
<glyph glyph-name="five" horiz-adv-x="560" unicode="5" d="M535 243q0 -107 -75 -183t-182 -75q-98 0 -174 69t-79 166h133q10 -48 40 -78t77 -31q55 1 91 39t36 93q0 52 -36 91t-89 39q-59 0 -100 -53l-119 33l70 387h335v-126h-235l-24 -136q48 21 95 21q101 0 169 -77t67 -179z"/>
<glyph glyph-name="six" horiz-adv-x="560" unicode="6" d="M403 239q-1 53 -37 91t-89 39q-49 0 -85 -37t-36 -88q0 -54 36 -94t88 -39q52 0 88 38t35 90zM536 251q0 -110 -74 -188t-182 -78q-110 0 -184 77t-73 188q0 84 60 175l206 314h156l-164 -250q10 3 31 3q96 0 160 -72t64 -169z"/>
<glyph glyph-name="seven" horiz-adv-x="560" unicode="7" d="M498 614l-267 -614h-148l276 614h-297v126h436v-126z"/>
<glyph glyph-name="eight" horiz-adv-x="560" unicode="8" d="M394 225q0 47 -34 81t-80 33q-46 1 -80 -33t-34 -81t34 -81t80 -33q46 -1 80 33t34 81zM359 549q0 33 -23 57t-56 23q-34 1 -56 -23t-22 -57q0 -31 23 -55t55 -24t56 24t23 55zM527 225q1 -100 -73 -170t-174 -70t-174 70t-73 170q0 128 110 186q-66 64 -66 140 q1 86 59 145t144 59t145 -59t59 -145q0 -75 -67 -140q110 -58 110 -186z"/>
<glyph glyph-name="nine" horiz-adv-x="560" unicode="9" d="M404 495q0 53 -35 93t-88 40t-89 -38t-35 -90q1 -56 35 -93t89 -37q51 0 87 37t36 88zM537 489q0 -84 -60 -175l-206 -314h-156l164 250q-10 -3 -31 -3q-96 -1 -160 71t-64 170q0 110 74 188t182 78q110 0 184 -77t73 -188z"/>
<glyph glyph-name="colon" horiz-adv-x="280" unicode=":" d="M206 0h-133v133h133v-133zM206 422h-133v133h133v-133z"/>
<glyph glyph-name="semicolon" horiz-adv-x="280" unicode=";" d="M206 -8q0 -61 -36 -97t-96 -36v67q36 8 47 22t11 52h-59v133h133v-141zM206 422h-133v133h133v-133z"/>
<glyph glyph-name="less" d="M554 -8l-508 214v94l508 214v-115l-352 -146l352 -146v-115z" unicode="&lt;"/>
<glyph glyph-name="equal" d="M552 81h-504v120h504v-120zM552 305h-504v120h504v-120z" unicode="="/>
<glyph glyph-name="greater" d="M554 206l-508 -214v115l352 146l-352 146v115l508 -214v-94z" unicode="&gt;"/>
<glyph glyph-name="question" horiz-adv-x="560" unicode="?" d="M326 0h-133v133h133v-133zM491 527q1 -55 -25 -95t-76 -87q-36 -33 -50 -57t-14 -67v-34h-133v29q0 56 17 100q18 44 42 69t48 46t41 45t17 51q0 43 -26 69t-68 26q-46 0 -66 -24t-27 -74h-133q14 166 147 215q40 16 83 16q97 0 160 -65t63 -163z"/>
<glyph glyph-name="at" horiz-adv-x="740" unicode="@" d="M490 379q0 37 -21 61t-56 24q-55 0 -93 -50t-37 -106q1 -39 21 -64t58 -25q54 -1 91 51t37 109zM750 415q0 -85 -42 -153t-115 -105q-44 -22 -80 -22q-25 -1 -41 15t-17 42h-2q-41 -57 -109 -57q-64 1 -106 49t-42 112q0 98 60 175t155 77q81 0 104 -69h2l15 55h83 l-67 -256q-8 -32 -8 -39q0 -20 18 -20q34 1 62 37t41 75q11 35 11 68q0 111 -72 177t-185 66q-123 0 -203 -86t-80 -208q0 -126 83 -208t210 -82q61 0 119 24t98 67h76q-50 -77 -128 -119t-169 -42q-155 0 -263 104t-108 259q0 151 108 256t258 105q134 0 234 -83t100 -214z "/>
<glyph glyph-name="A" horiz-adv-x="740" unicode="A" d="M453 320l-84 227h-2l-84 -227h170zM732 0h-151l-79 191h-265l-79 -191h-151l308 740h107z"/>
<glyph glyph-name="B" horiz-adv-x="580" unicode="B" d="M414 225q0 51 -40 75t-95 24h-72v-196h69q138 0 138 97zM370 532q0 80 -106 80h-57v-160h52q111 0 111 80zM551 220q0 -114 -92 -176q-65 -44 -191 -44h-198v740h160q48 0 78 -2t69 -16t67 -39t46 -63t17 -75q0 -94 -83 -141q127 -46 127 -184z"/>
<glyph glyph-name="C" horiz-adv-x="780" unicode="C" d="M766 529h-156q-84 98 -198 98q-100 1 -170 -77t-71 -179q1 -102 73 -180t173 -78t186 93h159q-42 -100 -138 -160t-204 -61q-158 1 -272 115t-114 273q0 157 113 269t270 113q115 0 209 -61t140 -165z"/>
<glyph glyph-name="D" horiz-adv-x="700" unicode="D" d="M520 368q0 51 -20 100t-59 82q-33 29 -77 43q-44 15 -76 17t-88 2v-484h29q116 0 180 36q51 29 81 85t30 119zM657 368q1 -97 -47 -186t-130 -134q-87 -48 -246 -48h-171v740h168q206 0 304 -86q58 -51 90 -128t32 -158z"/>
<glyph glyph-name="E" horiz-adv-x="520" unicode="E" d="M459 0h-398v740h398v-128h-261v-181h250v-128h-250v-175h261v-128z"/>
<glyph glyph-name="F" horiz-adv-x="480" unicode="F" d="M438 612h-240v-181h229v-128h-229v-303h-137v740h377v-128z"/>
<glyph glyph-name="G" horiz-adv-x="840" unicode="G" d="M817 361q0 -156 -117 -266t-275 -110q-163 -1 -281 111t-117 274q0 160 117 272t277 113q114 -1 218 -65t141 -167h-164q-32 49 -86 77t-112 27q-106 1 -180 -75t-74 -183q0 -50 21 -100q31 -74 95 -115t145 -41q71 1 129 37t90 99h-310v128h483v-16z"/>
<glyph glyph-name="H" horiz-adv-x="680" unicode="H" d="M610 0h-137v311h-265v-311h-137v740h137v-301h265v301h137v-740z"/>
<glyph glyph-name="I" horiz-adv-x="280" unicode="I" d="M209 0h-137v740h137v-740z"/>
<glyph glyph-name="J" horiz-adv-x="480" unicode="J" d="M409 210q0 -159 -119 -208q-40 -17 -83 -17q-85 -1 -138 51t-67 138h138q14 -61 65 -61q35 0 51 25t16 63v539h137v-530z"/>
<glyph glyph-name="K" horiz-adv-x="620" unicode="K" d="M620 0h-161l-231 325h-2v-325h-137v740h137v-320h2l231 320h161l-279 -364z"/>
<glyph glyph-name="L" horiz-adv-x="440" unicode="L" d="M435 0h-363v740h137v-612h226v-128z"/>
<glyph glyph-name="M" horiz-adv-x="900" unicode="M" d="M837 0h-137v555h-3l-189 -555h-116l-190 555h-2v-555h-137v740h190l197 -560h2l195 560h190v-740z"/>
<glyph glyph-name="N" horiz-adv-x="740" unicode="N" d="M671 0h-153l-309 538h-2v-538h-137v740h156l306 -538h2v538h137v-740z"/>
<glyph glyph-name="O" horiz-adv-x="840" unicode="O" d="M670 369q0 106 -72 182t-178 76t-178 -76t-72 -182q0 -104 73 -180t177 -76t177 76t73 180zM807 368q1 -159 -113 -271t-274 -112t-274 112t-113 271q0 161 113 274t274 113t274 -113t113 -274z"/>
<glyph glyph-name="P" horiz-adv-x="560" unicode="P" d="M408 511q0 31 -12 53t-37 32q-24 10 -47 12q-23 4 -54 4h-49v-202h44q32 0 55 4t48 12q24 10 38 32t14 53zM545 511q0 -110 -70 -170q-43 -39 -89 -49t-119 -10h-58v-282h-137v740h195q73 0 119 -10t89 -49q70 -60 70 -170z"/>
<glyph glyph-name="Q" horiz-adv-x="840" unicode="Q" d="M520 135q-136 101 -249 101q-35 0 -59 -9q33 -52 89 -83t118 -31q46 0 101 22zM669 369q0 106 -72 182t-178 76q-104 1 -177 -75t-73 -180q0 -11 2 -17q38 9 101 9q88 0 184 -42t159 -107h2q29 40 41 73t11 81zM824 -15h-19q-86 0 -176 61q-95 -61 -210 -61 q-159 0 -273 112t-114 271q0 161 113 274t274 113q159 0 273 -112t114 -270q0 -130 -81 -236q37 -24 99 -24v-128z"/>
<glyph glyph-name="R" horiz-adv-x="580" unicode="R" d="M421 500q0 54 -38 83t-94 29h-88v-226h88q58 0 95 29t37 85zM565 0h-166l-196 283h-2v-283h-137v740h227q118 0 180 -50q87 -70 87 -179q0 -49 -19 -97t-52 -80q-45 -42 -123 -61z"/>
<glyph glyph-name="S" horiz-adv-x="520" unicode="S" d="M493 221q0 -104 -68 -170t-172 -66q-99 1 -168 65t-73 162h144q4 -44 30 -72t68 -27q42 0 72 26t30 67q0 18 -4 32t-14 26t-16 18q-8 8 -24 16t-26 12t-30 10q-20 8 -27 11q-51 20 -67 28q-109 57 -109 185q1 91 63 151t154 60q90 -1 152 -61t67 -150h-140q-7 83 -83 83 q-32 0 -54 -21t-22 -54q0 -13 4 -24t7 -19q4 -8 14 -16q9 -8 15 -12t20 -10t20 -8q4 -1 22 -7l21 -7q93 -31 143 -84t51 -144z"/>
<glyph glyph-name="T" horiz-adv-x="420" unicode="T" d="M418 612h-138v-612h-137v612h-137v128h412v-128z"/>
<glyph glyph-name="U" horiz-adv-x="640" unicode="U" d="M585 270q0 -112 -43 -175q-36 -52 -96 -81t-125 -29q-63 0 -123 28t-97 78q-46 61 -46 179v470h137v-470q0 -157 128 -157t128 157v470h137v-470z"/>
<glyph glyph-name="V" horiz-adv-x="700" unicode="V" d="M695 740l-287 -740h-112l-288 740h144l198 -563h2l199 563h144z"/>
<glyph glyph-name="W" horiz-adv-x="900" unicode="W" d="M899 740l-215 -740h-109l-120 489h-2l-122 -489h-108l-216 740h140l128 -517h2l127 517h100l124 -517h2l129 517h140z"/>
<glyph glyph-name="X" horiz-adv-x="680" unicode="X" d="M676 0h-158l-178 256l-173 -256h-163l255 369l-255 371h163l173 -258l178 258h158l-256 -371z"/>
<glyph glyph-name="Y" horiz-adv-x="620" unicode="Y" d="M622 740l-244 -467v-273h-137v273l-243 467h150l161 -340l162 340h151z"/>
<glyph glyph-name="Z" horiz-adv-x="500" unicode="Z" d="M481 0h-462v112l283 500h-268v128h428v-119l-281 -493h300v-128z"/>
<glyph glyph-name="bracketleft" horiz-adv-x="320" unicode="[" d="M284 -157q-218 51 -218 337v269q0 241 218 305v-146q-31 -15 -45 -31q-36 -43 -36 -156v-265q1 -63 17 -105t64 -62v-146z"/>
<glyph glyph-name="backslash" horiz-adv-x="640" unicode="\" d="M544 -100h-134l-314 840h135z"/>
<glyph glyph-name="bracketright" horiz-adv-x="320" unicode="]" d="M254 148q0 -241 -218 -305v147q30 12 45 30q36 43 36 157v264q-1 63 -17 105t-64 62v146q218 -51 218 -337v-269z"/>
<glyph glyph-name="asciicircum" d="M527 375h-120l-107 248l-108 -248h-119l174 365h106z" unicode="^"/>
<glyph glyph-name="underscore" horiz-adv-x="500" unicode="_" d="M500 -125h-500v50h500v-50z"/>
<glyph glyph-name="grave" horiz-adv-x="420" unicode="`" d="M329 686l-53 -92l-226 125l57 102z"/>
<glyph glyph-name="a" horiz-adv-x="660" unicode="a" d="M487 279q0 73 -45 123t-117 50q-73 0 -119 -52t-46 -125q0 -71 48 -121t117 -50q72 0 117 51t45 124zM613 0h-122v69q-33 -39 -87 -63t-107 -24q-121 0 -195 88t-75 211q1 121 79 207t199 86q92 0 164 -66q15 -15 20 -23h2v70h122v-555z"/>
<glyph glyph-name="b" horiz-adv-x="660" unicode="b" d="M499 279q1 73 -45 123t-117 50q-69 0 -117 -49t-48 -118q0 -77 46 -129t121 -52q72 0 116 50t44 125zM632 280q0 -60 -24 -121q-33 -85 -98 -131t-154 -46q-60 0 -104 20t-83 65v-67h-122v740h133v-235q69 69 173 69q119 0 199 -88t80 -206z"/>
<glyph glyph-name="c" horiz-adv-x="640" unicode="c" d="M610 181q-33 -91 -107 -145t-171 -54q-123 0 -209 88t-86 210q1 122 87 208t207 86q97 0 173 -55t106 -148h-150q-45 81 -129 81q-73 0 -117 -50t-44 -124t47 -124t120 -50q75 0 123 77h150z"/>
<glyph glyph-name="d" horiz-adv-x="660" unicode="d" d="M495 278q1 70 -47 122t-117 52q-67 0 -115 -52t-49 -118q1 -70 47 -124t117 -54q69 0 117 52t47 122zM618 0h-122v68h-2q-27 -42 -75 -64t-102 -22q-119 0 -201 88t-82 207q0 89 46 163t128 110q54 24 109 24q104 0 168 -68v234h133v-740z"/>
<glyph glyph-name="e" horiz-adv-x="640" unicode="e" d="M474 325q-10 59 -50 93t-100 34t-102 -34t-55 -93h307zM610 285q0 -32 -8 -67h-431q4 -19 18 -40q48 -74 135 -74q89 0 128 71h140q-27 -85 -103 -139t-165 -54q-124 0 -208 85t-85 209q-1 126 83 212t209 86q121 0 204 -84t83 -205z"/>
<glyph glyph-name="f" horiz-adv-x="280" unicode="f" d="M280 624q-46 -1 -64 -13t-21 -56h78v-118h-78v-437h-133v437h-47v118h47q9 102 65 155q50 45 116 45h37v-131z"/>
<glyph glyph-name="g" horiz-adv-x="660" unicode="g" d="M490 283q0 67 -48 118t-115 51q-69 0 -115 -50t-47 -120q0 -74 47 -126t119 -52q71 0 115 54t44 125zM623 102q1 -104 -43 -184t-135 -118q-60 -26 -125 -26q-94 0 -170 49t-109 135h152q53 -62 137 -62q74 0 120 50t50 123l-2 2q-63 -89 -182 -89q-57 0 -110 25 q-82 37 -128 111t-46 165q0 119 82 205t201 86t177 -87h2v68h129v-453z"/>
<glyph glyph-name="h" d="M546 0h-133v284q0 35 -4 61q-4 27 -15 53t-35 40t-60 14q-35 0 -59 -15t-34 -42t-15 -53q-4 -26 -4 -60v-282h-133v740h133v-224q61 58 144 58q47 0 95 -24t76 -61q44 -57 44 -167v-322z" unicode="h"/>
<glyph glyph-name="i" horiz-adv-x="240" unicode="i" d="M186 0h-133v555h133v-555zM186 618h-133v122h133v-122z"/>
<glyph glyph-name="j" horiz-adv-x="260" unicode="j" d="M205 24q0 -90 -50 -149t-139 -60v130q38 3 47 21t9 61v528h133v-531zM205 618h-133v122h133v-122z"/>
<glyph glyph-name="k" horiz-adv-x="580" unicode="k" d="M571 0h-168l-188 260h-2v-260h-133v740h133v-446h2l177 261h153l-200 -272z"/>
<glyph glyph-name="l" horiz-adv-x="240" unicode="l" d="M187 0h-133v740h133v-740z"/>
<glyph glyph-name="m" horiz-adv-x="940" unicode="m" d="M887 0h-133v308q0 144 -105 144q-61 0 -92 -52q-20 -33 -20 -113v-287h-133v308q0 62 -26 103t-85 41q-35 0 -58 -16t-33 -44q-10 -30 -12 -54q-3 -24 -3 -61v-277h-133v555h122v-47h2q40 66 145 66q104 0 160 -87q61 87 179 87q120 0 183 -86q42 -59 42 -164v-324z"/>
<glyph glyph-name="n" d="M547 0h-133v274q0 178 -112 178q-57 0 -91 -49q-24 -35 -24 -139v-264h-133v555h123v-48q69 67 152 67q46 0 92 -21t75 -56q51 -62 51 -189v-308z" unicode="n"/>
<glyph glyph-name="o" horiz-adv-x="640" unicode="o" d="M482 276q0 68 -46 122t-115 54t-116 -53t-47 -122q0 -71 46 -122t117 -51q69 0 115 51t46 121zM615 279q0 -125 -84 -211t-210 -86q-122 0 -209 87t-87 208q1 123 87 210t209 87t209 -86t85 -209z"/>
<glyph glyph-name="p" horiz-adv-x="660" unicode="p" d="M496 278q0 70 -46 122t-114 52q-72 0 -118 -52t-46 -122q0 -53 25 -95t72 -63q32 -16 65 -16q70 0 116 52t46 122zM629 280q1 -122 -79 -210t-199 -88q-55 0 -93 16t-78 55v-238h-133v740h122v-65h2q67 84 180 84q120 0 199 -86t79 -208z"/>
<glyph glyph-name="q" horiz-adv-x="660" unicode="q" d="M487 277q0 71 -46 123t-115 52q-70 0 -116 -51t-46 -121q0 -72 46 -124t117 -52q68 0 114 52t46 121zM613 -185h-133v238q-65 -71 -169 -71q-120 0 -200 90t-80 211q1 117 83 204t198 87q118 0 177 -89h2v70h122v-740z"/>
<glyph glyph-name="r" horiz-adv-x="320" unicode="r" d="M317 445q-121 -4 -121 -133v-312h-133v555h122v-49h2q28 40 54 54t76 14v-129z"/>
<glyph glyph-name="s" horiz-adv-x="440" unicode="s" d="M421 176q1 -82 -55 -138t-139 -56q-48 0 -93 18t-73 55q-36 45 -42 120h136q16 -71 73 -71q24 0 42 16t18 40q0 17 -8 29q-6 9 -23 18t-31 14t-36 13l-27 9q-124 44 -124 159q-1 74 55 123t131 49q73 0 125 -49t56 -121h-130q-10 48 -53 48q-21 0 -36 -14t-15 -34 q0 -14 8 -24t15 -12q7 -4 23 -10t48 -16q76 -24 116 -60t39 -106z"/>
<glyph glyph-name="t" horiz-adv-x="300" unicode="t" d="M299 437h-80v-437h-133v437h-65v118h65v185h133v-185h80v-118z"/>
<glyph glyph-name="u" d="M544 0h-122v56h-2q-54 -74 -143 -74q-56 0 -106 22t-80 66q-41 59 -41 191v294h133v-283q0 -168 116 -168q33 0 56 15t35 41t16 53q5 27 5 58v284h133v-555z" unicode="u"/>
<glyph glyph-name="v" horiz-adv-x="560" unicode="v" d="M556 555l-225 -555h-104l-224 555h144l134 -368h3l126 368h146z"/>
<glyph glyph-name="w" horiz-adv-x="800" unicode="w" d="M789 555l-203 -555h-82l-104 360h-2l-105 -360h-82l-200 555h142l101 -339h2l91 339h106l90 -339h2l102 339h142z"/>
<glyph glyph-name="x" horiz-adv-x="560" unicode="x" d="M556 0h-158l-119 190l-118 -190h-158l197 286l-172 269h149l102 -167l101 167h149l-172 -269z"/>
<glyph glyph-name="y" horiz-adv-x="580" unicode="y" d="M571 555l-319 -740h-143l102 237l-203 503h152l126 -356l134 356h151z"/>
<glyph glyph-name="z" horiz-adv-x="460" unicode="z" d="M442 0h-422v122l246 311h-218v122h377v-122l-246 -311h263v-122z"/>
<glyph glyph-name="braceleft" horiz-adv-x="340" unicode="{" d="M317 -191h-90q-19 0 -45 11q-40 16 -64 50t-24 77v216q0 36 -29 53t-68 17v99q37 0 67 14t30 47v216q0 43 24 77t64 50q26 11 45 11h90v-90h-45q-41 0 -41 -65v-212q0 -50 -36 -72t-89 -24v-3q61 -3 93 -25t32 -80v-212q0 -65 41 -65h45v-90z"/>
<glyph glyph-name="bar" d="M366 -250h-133v1000h133v-1000z" unicode="|"/>
<glyph glyph-name="braceright" horiz-adv-x="340" unicode="}" d="M343 233q-39 0 -68 -17t-29 -53v-216q0 -43 -24 -77t-64 -50q-26 -11 -45 -11h-90v90h45q41 0 41 65v212q0 58 32 80t93 25v3q-53 2 -89 24t-36 72v212q0 65 -41 65h-45v90h90q19 0 45 -11q40 -16 64 -50t24 -77v-216q0 -33 30 -47t67 -14v-99z"/>
<glyph glyph-name="asciitilde" d="M533 249q-22 -29 -35 -44q-12 -15 -38 -29t-54 -15q-38 0 -104 34t-113 34q-49 0 -86 -69l-36 96q49 89 127 89q40 0 114 -34t99 -34q19 -1 38 13t27 24t25 33z" unicode="~"/>
<glyph glyph-name="uni00A0" horiz-adv-x="280" unicode=" "/>
<glyph glyph-name="exclamdown" horiz-adv-x="280" unicode="¡" d="M207 -185h-133v551h133v-551zM207 428h-133v127h133v-127z"/>
<glyph glyph-name="cent" horiz-adv-x="560" unicode="¢" d="M517 310q-27 -66 -65 -104t-103 -58v-109h-126v109q-78 16 -129 85t-51 150q-1 79 51 147t129 83v102h126v-102q38 -13 61 -25t47 -37q49 -50 60 -108h-140q-14 22 -40 34t-53 12q-46 0 -77 -32t-31 -78q0 -45 32 -77t78 -32q43 0 85 40h146z"/>
<glyph glyph-name="sterling" horiz-adv-x="560" unicode="£" d="M562 224q0 -48 -20 -91q-28 -67 -86 -100t-134 -33h-284v126h139q19 35 19 72q0 56 -57 113h-141v126h56q-16 38 -16 80q0 97 72 167t168 71q68 0 126 -38t89 -101q20 -40 20 -73h-135q-8 37 -35 61t-64 25q-49 0 -79 -35t-29 -84q0 -42 28 -73h208v-126h-109 q18 -39 24 -61t7 -58q0 -36 -11 -66h11q43 0 71 28t29 71q0 18 -10 50h133q10 -20 10 -51z"/>
<glyph glyph-name="currency" horiz-adv-x="602" unicode="¤" d="M428 342q0 52 -37 90t-90 38t-90 -38t-37 -91q0 -52 38 -90t89 -38q53 0 90 38t37 91zM592 122l-66 -67l-81 81q-64 -46 -144 -46q-77 0 -144 46l-81 -80l-66 65l83 83q-43 63 -43 137q0 77 45 141l-85 84l66 67l86 -85q63 43 139 43q78 0 138 -42l85 83l65 -66l-83 -83 q46 -63 46 -142q0 -76 -43 -137z"/>
<glyph glyph-name="yen" horiz-adv-x="560" unicode="¥" d="M570 740l-138 -251h88v-105h-142l-31 -57v-33h164v-105h-164v-189h-133v189h-166v105h166v33l-32 57h-142v105h88l-138 251h137l154 -288l155 288h134z"/>
<glyph glyph-name="brokenbar" d="M366 -175h-133v350h133v-350zM366 325h-133v350h133v-350z" unicode="¦"/>
<glyph glyph-name="section" horiz-adv-x="560" unicode="§" d="M405 279q0 15 -10 29q-11 14 -21 19q-10 6 -27 15l-154 78q-15 -12 -27 -30t-13 -35q0 -32 57 -62l155 -79q40 30 40 65zM530 291q0 -39 -23 -77t-59 -64q50 -50 50 -120q0 -88 -63 -138t-152 -50q-97 0 -159 58t-66 154h125q0 -44 28 -67t73 -23q34 0 62 16t27 49 q0 7 -2 14q-3 7 -5 11t-8 11q-6 6 -10 9q-4 2 -12 8t-11 8t-13 6q-10 5 -11 6l-166 88q-107 58 -107 157q0 88 89 147q-29 47 -29 94q0 80 58 124t142 43q93 -1 145 -49t63 -139h-125q-12 66 -82 66q-31 1 -53 -13t-23 -43q1 -15 13 -29t21 -18q9 -6 29 -16l164 -84 q42 -22 66 -58t24 -81z"/>
<glyph glyph-name="dieresis" horiz-adv-x="500" unicode="¨" d="M212 629h-134v133h134v-133zM422 629h-133v133h133v-133z"/>
<glyph glyph-name="copyright" horiz-adv-x="740" unicode="©" d="M568 295q-8 -68 -64 -110t-128 -42q-98 0 -156 65t-59 163q1 98 59 163t156 65q72 0 128 -42t64 -110h-90q-25 77 -102 77q-61 0 -93 -45t-32 -108q0 -65 31 -109t94 -44q42 0 66 18t36 59h90zM662 370q0 122 -85 209t-207 87t-207 -86t-85 -210q0 -122 85 -209t207 -87 t207 87t85 209zM752 370q0 -158 -112 -270t-269 -112q-159 0 -271 112t-112 270t112 270t271 112q157 0 269 -112t112 -270z"/>
<glyph glyph-name="ordfeminine" horiz-adv-x="360" unicode="ª" d="M248 597q0 31 -20 52t-50 21q-31 0 -50 -22t-19 -53q-1 -30 19 -51t50 -21q30 -1 50 21t20 53zM334 448h-88v25h-2q-24 -35 -76 -35q-65 0 -107 47t-42 113q0 64 43 110t106 47q53 0 76 -36h2v26h88v-297z"/>
<glyph glyph-name="guillemotleft" horiz-adv-x="460" unicode="«" d="M201 108l-140 131v101l140 129v-123l-68 -57l68 -58v-123zM400 108l-140 131v101l140 129v-123l-68 -57l68 -58v-123z"/>
<glyph glyph-name="logicalnot" d="M552 108h-120v197h-384v120h504v-317z" unicode="¬"/>
<glyph glyph-name="uni00AD" horiz-adv-x="420" unicode="­" d="M349 230h-278v118h278v-118z"/>
<glyph glyph-name="registered" horiz-adv-x="740" unicode="®" d="M456 463q0 9 -4 17q-6 22 -24 28t-46 6h-88v-121h84q38 -1 58 15t20 55zM551 148h-89q-10 16 -13 81q-1 19 -3 29t-5 24q-4 14 -14 22t-25 14q-18 5 -31 5h-77v-175h-87v437h188q65 0 107 -28t43 -91q0 -86 -81 -106v-2q42 -12 56 -36t17 -73q1 -5 1 -19v-22t2 -20 q1 -12 4 -23q3 -10 7 -17zM662 370q0 122 -85 209t-207 87t-207 -86t-85 -210q0 -122 85 -209t207 -87t207 87t85 209zM752 370q0 -158 -112 -270t-269 -112q-159 0 -271 112t-112 270t112 270t271 112q157 0 269 -112t112 -270z"/>
<glyph glyph-name="macron" horiz-adv-x="420" unicode="¯" d="M349 638h-277v111h277v-111z"/>
<glyph glyph-name="degree" horiz-adv-x="400" unicode="°" d="M271 569q0 29 -21 51t-50 23q-29 -1 -50 -23t-21 -51t21 -51t50 -23q29 1 50 23t21 51zM343 569q1 -59 -41 -101t-102 -42t-102 42t-41 101q-1 59 41 101t102 42t102 -42t41 -101z"/>
<glyph glyph-name="plusminus" d="M552 0h-504v120h504v-120zM552 342h-192v-150h-120v150h-192v120h192v156h120v-156h192v-120z" unicode="±"/>
<glyph glyph-name="two.superior" horiz-adv-x="336" unicode="²" d="M322 421h-304v81l159 147q49 45 49 80q0 27 -16 43t-43 16q-58 0 -58 -80h-95q-1 6 -1 18q-1 64 45 106t109 42t109 -42t46 -105q0 -75 -87 -150l-80 -70h167v-86z"/>
<glyph glyph-name="three.superior" horiz-adv-x="336" unicode="³" d="M328 562q0 -66 -48 -108t-114 -42t-110 42t-48 106h96q2 -26 20 -44t45 -18t45 18t18 45q0 43 -26 55t-73 12v86h19t16 2t16 6t10 11q5 8 5 20q0 35 -34 35q-28 0 -28 -36h-96q3 54 37 88t89 34q51 0 89 -36t39 -86q0 -48 -34 -76q31 -14 49 -46t18 -68z"/>
<glyph glyph-name="acute" horiz-adv-x="420" unicode="´" d="M368 719l-226 -125l-53 92l222 135z"/>
<glyph glyph-name="mu" horiz-adv-x="630" unicode="µ" d="M558 0h-126v48h-3q-38 -66 -120 -66q-67 0 -104 42v-204h-133v735h133v-262q0 -95 22 -135q28 -54 82 -54q37 0 61 18t36 50q11 32 15 62t4 69v252h133v-555z"/>
<glyph glyph-name="paragraph" d="M607 637h-79v-740h-113v740h-97v-740h-113v458q-94 0 -153 48t-59 141q0 196 254 196h360v-103z" unicode="¶"/>
<glyph glyph-name="periodcentered" horiz-adv-x="280" unicode="·" d="M206 187h-133v133h133v-133z"/>
<glyph glyph-name="cedilla" horiz-adv-x="340" unicode="¸" d="M298 -153q0 -45 -28 -71t-72 -27q-36 -1 -68 25t-32 62h53q3 -17 16 -27t31 -10q22 -1 34 13t12 35q0 20 -14 35t-33 15q-31 0 -43 -22l-49 19l49 112l50 -7l-24 -54q16 2 25 2q41 0 67 -29t26 -71z"/>
<glyph glyph-name="one.superior" horiz-adv-x="248" unicode="¹" d="M176 421h-96v358h-55v86h151v-444z"/>
<glyph glyph-name="ordmasculine" horiz-adv-x="360" unicode="º" d="M248 595q0 29 -19 52t-48 23q-30 0 -49 -22t-19 -52q-1 -29 19 -51t49 -22q29 -1 48 21t19 51zM338 597q0 -67 -45 -113t-112 -46q-65 0 -111 47t-47 111q0 66 46 112t112 47q65 0 111 -46t46 -112z"/>
<glyph glyph-name="guillemotright" horiz-adv-x="460" unicode="»" d="M201 239l-140 -131v123l68 58l-68 57v123l140 -129v-101zM400 239l-140 -131v123l68 58l-68 57v123l140 -129v-101z"/>
<glyph glyph-name="onequarter" horiz-adv-x="706" unicode="¼" d="M530 147v159h-2l-97 -159h99zM176 296h-96v358h-55v86h151v-444zM515 740l-307 -740h-98l306 740h99zM669 65h-49v-65h-90v65h-198v70l212 309h76v-297h49v-82z"/>
<glyph glyph-name="onehalf" horiz-adv-x="756" unicode="½" d="M176 296h-96v358h-55v86h151v-444zM515 740l-307 -740h-98l306 740h99zM724 0h-304v81l159 147q49 45 49 80q0 26 -16 42t-43 17q-58 0 -58 -80h-95q-1 6 -1 18q-1 63 45 105t109 43q63 0 109 -42t46 -105q0 -75 -87 -150l-80 -70h167v-86z"/>
<glyph glyph-name="threequarters" horiz-adv-x="840" unicode="¾" d="M664 147v159h-2l-97 -159h99zM338 437q0 -66 -48 -108t-114 -42q-66 -1 -110 41t-48 107h96q2 -27 20 -45t45 -17q27 0 45 18t18 45q0 42 -26 54t-73 13v86h19t16 2q12 1 16 5t10 12q5 8 5 20q0 35 -34 35q-28 0 -28 -36h-96q3 54 37 88t89 34q51 1 89 -35t39 -87 q0 -48 -34 -76q31 -13 49 -45t18 -69zM649 740l-307 -740h-98l306 740h99zM803 65h-49v-65h-90v65h-198v70l212 309h76v-297h49v-82z"/>
<glyph glyph-name="questiondown" horiz-adv-x="560" unicode="¿" d="M521 31q-14 -166 -147 -215q-40 -16 -83 -16q-97 0 -160 65t-63 163q0 55 26 95t75 87q36 34 50 58t14 66v34h133v-29q0 -57 -17 -101t-41 -68q-24 -25 -48 -46q-24 -20 -42 -44q-17 -24 -17 -52q-1 -44 25 -70t69 -25q47 1 67 25t26 73h133zM366 422h-133v133h133v-133z "/>
<glyph glyph-name="Agrave" horiz-adv-x="740" unicode="À" d="M489 886l-53 -92l-226 125l57 102zM453 320l-84 227h-2l-84 -227h170zM732 0h-151l-79 191h-265l-79 -191h-151l308 740h107z"/>
<glyph glyph-name="Aacute" horiz-adv-x="740" unicode="Á" d="M528 919l-226 -125l-53 92l222 135zM453 320l-84 227h-2l-84 -227h170zM732 0h-151l-79 191h-265l-79 -191h-151l308 740h107z"/>
<glyph glyph-name="Acircumflex" horiz-adv-x="740" unicode="Â" d="M570 806h-145l-53 64l-56 -64h-145l148 138h105zM453 320l-84 227h-2l-84 -227h170zM732 0h-151l-79 191h-265l-79 -191h-151l308 740h107z"/>
<glyph glyph-name="Atilde" horiz-adv-x="740" unicode="Ã" d="M567 853q-59 -47 -114 -47q-25 0 -73 14t-72 13q-40 0 -80 -20l-54 81q57 43 116 43q26 -1 74 -15t73 -14q41 0 76 23zM453 320l-84 227h-2l-84 -227h170zM732 0h-151l-79 191h-265l-79 -191h-151l308 740h107z"/>
<glyph glyph-name="Adieresis" horiz-adv-x="740" unicode="Ä" d="M332 806h-134v133h134v-133zM542 806h-133v133h133v-133zM453 320l-84 227h-2l-84 -227h170zM732 0h-151l-79 191h-265l-79 -191h-151l308 740h107z"/>
<glyph glyph-name="Aring" horiz-adv-x="740" unicode="Å" d="M411 861q0 17 -12 29t-29 12q-16 0 -28 -12t-12 -29t12 -29t28 -11q17 -1 29 11t12 29zM478 861q0 -43 -32 -75t-76 -32t-76 32t-31 75q0 45 31 77t76 31q44 1 76 -31t32 -77zM453 320l-84 227h-2l-84 -227h170zM732 0h-151l-79 191h-265l-79 -191h-151l308 740h107z"/>
<glyph glyph-name="AE" horiz-adv-x="900" unicode="Æ" d="M467 319v195h-2l-113 -195h115zM824 0h-357v191h-196l-115 -191h-161l489 740h340v-128h-220v-181h209v-128h-209v-175h220v-128z"/>
<glyph glyph-name="Ccedilla" horiz-adv-x="780" unicode="Ç" d="M508 -153q0 -45 -28 -71t-72 -27q-36 -1 -68 25t-32 62h53q3 -17 16 -27t31 -10q22 -1 34 13t12 35q0 20 -14 35t-33 15q-31 0 -43 -22l-49 19l42 96q-139 23 -231 132t-92 251q0 157 113 269t270 113q115 0 209 -61t140 -165h-156q-84 98 -198 98q-100 1 -170 -77 t-71 -179q1 -102 73 -180t173 -78t186 93h159q-42 -100 -138 -160t-204 -61h-12l-18 -40q16 2 25 2q41 0 67 -29t26 -71z"/>
<glyph glyph-name="Egrave" horiz-adv-x="520" unicode="È" d="M379 886l-53 -92l-226 125l57 102zM459 0h-398v740h398v-128h-261v-181h250v-128h-250v-175h261v-128z"/>
<glyph glyph-name="Eacute" horiz-adv-x="520" unicode="É" d="M418 919l-226 -125l-53 92l222 135zM459 0h-398v740h398v-128h-261v-181h250v-128h-250v-175h261v-128z"/>
<glyph glyph-name="Ecircumflex" horiz-adv-x="520" unicode="Ê" d="M460 806h-145l-53 64l-56 -64h-145l148 138h105zM459 0h-398v740h398v-128h-261v-181h250v-128h-250v-175h261v-128z"/>
<glyph glyph-name="Edieresis" horiz-adv-x="520" unicode="Ë" d="M222 806h-134v133h134v-133zM432 806h-133v133h133v-133zM459 0h-398v740h398v-128h-261v-181h250v-128h-250v-175h261v-128z"/>
<glyph glyph-name="Igrave" horiz-adv-x="280" unicode="Ì" d="M234 886l-53 -92l-226 125l57 102zM209 0h-137v740h137v-740z"/>
<glyph glyph-name="Iacute" horiz-adv-x="280" unicode="Í" d="M323 919l-226 -125l-53 92l222 135zM209 0h-137v740h137v-740z"/>
<glyph glyph-name="Icircumflex" horiz-adv-x="280" unicode="Î" d="M340 806h-145l-53 64l-56 -64h-145l148 138h105zM209 0h-137v740h137v-740z"/>
<glyph glyph-name="Idieresis" horiz-adv-x="280" unicode="Ï" d="M102 806h-134v133h134v-133zM312 806h-133v133h133v-133zM209 0h-137v740h137v-740z"/>
<glyph glyph-name="Eth" horiz-adv-x="734" unicode="Ð" d="M554 368q0 51 -20 100t-59 82q-33 29 -77 43q-44 15 -76 17t-88 2v-173h137v-128h-137v-183h29q116 0 180 36q51 29 81 85t30 119zM691 368q1 -97 -47 -186t-130 -134q-87 -48 -246 -48h-171v311h-72v128h72v301h168q206 0 304 -86q58 -51 90 -128t32 -158z"/>
<glyph glyph-name="Ntilde" horiz-adv-x="740" unicode="Ñ" d="M567 853q-59 -47 -114 -47q-25 0 -73 14t-72 13q-40 0 -80 -20l-54 81q57 43 116 43q26 -1 74 -15t73 -14q41 0 76 23zM671 0h-153l-309 538h-2v-538h-137v740h156l306 -538h2v538h137v-740z"/>
<glyph glyph-name="Ograve" horiz-adv-x="840" unicode="Ò" d="M539 886l-53 -92l-226 125l57 102zM670 369q0 106 -72 182t-178 76t-178 -76t-72 -182q0 -104 73 -180t177 -76t177 76t73 180zM807 368q1 -159 -113 -271t-274 -112t-274 112t-113 271q0 161 113 274t274 113t274 -113t113 -274z"/>
<glyph glyph-name="Oacute" horiz-adv-x="840" unicode="Ó" d="M578 919l-226 -125l-53 92l222 135zM670 369q0 106 -72 182t-178 76t-178 -76t-72 -182q0 -104 73 -180t177 -76t177 76t73 180zM807 368q1 -159 -113 -271t-274 -112t-274 112t-113 271q0 161 113 274t274 113t274 -113t113 -274z"/>
<glyph glyph-name="Ocircumflex" horiz-adv-x="840" unicode="Ô" d="M620 806h-145l-53 64l-56 -64h-145l148 138h105zM670 369q0 106 -72 182t-178 76t-178 -76t-72 -182q0 -104 73 -180t177 -76t177 76t73 180zM807 368q1 -159 -113 -271t-274 -112t-274 112t-113 271q0 161 113 274t274 113t274 -113t113 -274z"/>
<glyph glyph-name="Otilde" horiz-adv-x="840" unicode="Õ" d="M617 853q-59 -47 -114 -47q-25 0 -73 14t-72 13q-40 0 -80 -20l-54 81q57 43 116 43q26 -1 74 -15t73 -14q41 0 76 23zM670 369q0 106 -72 182t-178 76t-178 -76t-72 -182q0 -104 73 -180t177 -76t177 76t73 180zM807 368q1 -159 -113 -271t-274 -112t-274 112t-113 271 q0 161 113 274t274 113t274 -113t113 -274z"/>
<glyph glyph-name="Odieresis" horiz-adv-x="840" unicode="Ö" d="M382 806h-134v133h134v-133zM592 806h-133v133h133v-133zM670 369q0 106 -72 182t-178 76t-178 -76t-72 -182q0 -104 73 -180t177 -76t177 76t73 180zM807 368q1 -159 -113 -271t-274 -112t-274 112t-113 271q0 161 113 274t274 113t274 -113t113 -274z"/>
<glyph glyph-name="multiply" d="M541 94l-82 -82l-159 160l-159 -160l-82 82l159 159l-159 159l82 82l159 -159l159 159l82 -82l-160 -159z" unicode="×"/>
<glyph glyph-name="Oslash" horiz-adv-x="840" unicode="Ø" d="M507 611q-41 16 -87 16q-106 0 -178 -76t-72 -182q0 -91 60 -164zM670 369q0 90 -56 163l-276 -405q40 -14 82 -14q104 0 177 76t73 180zM807 368q1 -159 -113 -271t-274 -112q-82 0 -156 33l-61 -89l-110 75l60 88q-120 112 -120 276q0 161 113 274t274 113 q87 0 162 -36v1l63 94l109 -75l-64 -94q117 -111 117 -277z"/>
<glyph glyph-name="Ugrave" horiz-adv-x="640" unicode="Ù" d="M404 886l-53 -92l-226 125l57 102zM585 270q0 -112 -43 -175q-36 -52 -96 -81t-125 -29q-63 0 -123 28t-97 78q-46 61 -46 179v470h137v-470q0 -157 128 -157t128 157v470h137v-470z"/>
<glyph glyph-name="Uacute" horiz-adv-x="640" unicode="Ú" d="M513 919l-226 -125l-53 92l222 135zM585 270q0 -112 -43 -175q-36 -52 -96 -81t-125 -29q-63 0 -123 28t-97 78q-46 61 -46 179v470h137v-470q0 -157 128 -157t128 157v470h137v-470z"/>
<glyph glyph-name="Ucircumflex" horiz-adv-x="640" unicode="Û" d="M520 806h-145l-53 64l-56 -64h-145l148 138h105zM585 270q0 -112 -43 -175q-36 -52 -96 -81t-125 -29q-63 0 -123 28t-97 78q-46 61 -46 179v470h137v-470q0 -157 128 -157t128 157v470h137v-470z"/>
<glyph glyph-name="Udieresis" horiz-adv-x="640" unicode="Ü" d="M282 806h-134v133h134v-133zM492 806h-133v133h133v-133zM585 270q0 -112 -43 -175q-36 -52 -96 -81t-125 -29q-63 0 -123 28t-97 78q-46 61 -46 179v470h137v-470q0 -157 128 -157t128 157v470h137v-470z"/>
<glyph glyph-name="Yacute" horiz-adv-x="620" unicode="Ý" d="M503 919l-226 -125l-53 92l222 135zM622 740l-244 -467v-273h-137v273l-243 467h150l161 -340l162 340h151z"/>
<glyph glyph-name="Thorn" horiz-adv-x="560" unicode="Þ" d="M408 371q0 31 -12 53t-37 32q-24 10 -47 12q-23 4 -54 4h-49v-202h44q32 0 55 4t48 12q24 10 38 32t14 53zM545 371q0 -110 -70 -170q-43 -39 -89 -49t-119 -10h-58v-142h-137v740h137v-140h58q73 0 119 -10t89 -49q70 -60 70 -170z"/>
<glyph glyph-name="germandbls" d="M452 200q0 39 -18 64q-18 26 -50 36t-60 13t-66 3v118q48 0 74 29t26 76q0 41 -22 67t-63 27q-89 0 -89 -130v-314h86q6 -35 32 -60t60 -25q38 0 64 28t26 68zM585 214q0 -104 -60 -168t-163 -64q-133 0 -187 91h-2v-73h-122v488q0 195 142 251q42 16 83 16 q89 -1 152 -61t63 -149q0 -97 -66 -136q75 -19 117 -69t43 -126z" unicode="ß"/>
<glyph glyph-name="agrave" horiz-adv-x="660" unicode="à" d="M449 716l-53 -92l-226 125l57 102zM487 279q0 73 -45 123t-117 50q-73 0 -119 -52t-46 -125q0 -71 48 -121t117 -50q72 0 117 51t45 124zM613 0h-122v69q-33 -39 -87 -63t-107 -24q-121 0 -195 88t-75 211q1 121 79 207t199 86q92 0 164 -66q15 -15 20 -23h2v70h122v-555 z"/>
<glyph glyph-name="aacute" horiz-adv-x="660" unicode="á" d="M488 749l-226 -125l-53 92l222 135zM487 279q0 73 -45 123t-117 50q-73 0 -119 -52t-46 -125q0 -71 48 -121t117 -50q72 0 117 51t45 124zM613 0h-122v69q-33 -39 -87 -63t-107 -24q-121 0 -195 88t-75 211q1 121 79 207t199 86q92 0 164 -66q15 -15 20 -23h2v70h122 v-555z"/>
<glyph glyph-name="acircumflex" horiz-adv-x="660" unicode="â" d="M530 636h-145l-53 64l-56 -64h-145l148 138h105zM487 279q0 73 -45 123t-117 50q-73 0 -119 -52t-46 -125q0 -71 48 -121t117 -50q72 0 117 51t45 124zM613 0h-122v69q-33 -39 -87 -63t-107 -24q-121 0 -195 88t-75 211q1 121 79 207t199 86q92 0 164 -66q15 -15 20 -23 h2v70h122v-555z"/>
<glyph glyph-name="atilde" horiz-adv-x="660" unicode="ã" d="M527 683q-59 -47 -114 -47q-25 0 -73 14t-72 13q-40 0 -80 -20l-54 81q57 43 116 43q26 -1 74 -15t73 -14q41 0 76 23zM487 279q0 73 -45 123t-117 50q-73 0 -119 -52t-46 -125q0 -71 48 -121t117 -50q72 0 117 51t45 124zM613 0h-122v69q-33 -39 -87 -63t-107 -24 q-121 0 -195 88t-75 211q1 121 79 207t199 86q92 0 164 -66q15 -15 20 -23h2v70h122v-555z"/>
<glyph glyph-name="adieresis" horiz-adv-x="660" unicode="ä" d="M292 636h-134v133h134v-133zM502 636h-133v133h133v-133zM487 279q0 73 -45 123t-117 50q-73 0 -119 -52t-46 -125q0 -71 48 -121t117 -50q72 0 117 51t45 124zM613 0h-122v69q-33 -39 -87 -63t-107 -24q-121 0 -195 88t-75 211q1 121 79 207t199 86q92 0 164 -66 q15 -15 20 -23h2v70h122v-555z"/>
<glyph glyph-name="aring" horiz-adv-x="660" unicode="å" d="M371 726q0 17 -12 29t-29 12q-16 0 -28 -12t-12 -29q0 -16 12 -28t28 -12q17 0 29 12t12 28zM438 726q0 -44 -32 -76t-76 -31q-44 -1 -76 31t-31 76q0 44 31 76t76 32q44 0 76 -32t32 -76zM487 279q0 73 -45 123t-117 50q-73 0 -119 -52t-46 -125q0 -71 48 -121t117 -50 q72 0 117 51t45 124zM613 0h-122v69q-33 -39 -87 -63t-107 -24q-121 0 -195 88t-75 211q1 121 79 207t199 86q92 0 164 -66q15 -15 20 -23h2v70h122v-555z"/>
<glyph glyph-name="ae" horiz-adv-x="1080" unicode="æ" d="M481 278q1 70 -45 122t-114 52q-70 0 -115 -52t-45 -124q0 -68 46 -120t113 -52q69 0 115 52t45 122zM915 325q-8 59 -51 93t-102 34q-57 0 -99 -36t-55 -91h307zM1048 267q0 -28 -4 -49h-432q12 -48 55 -81t94 -33q41 0 79 18t53 53h140q-11 -33 -37 -70 q-40 -55 -100 -89t-125 -34q-106 0 -162 74h-2v-56h-122v56h-2q-52 -74 -170 -74t-201 88t-83 207q-1 121 83 209t203 88q55 0 93 -16t77 -53v50h122v-50q65 69 170 69q109 0 190 -90t81 -199v-18z"/>
<glyph glyph-name="ccedilla" horiz-adv-x="640" unicode="ç" d="M610 181q-34 -95 -108 -147t-173 -52l-17 -37q16 2 25 2q41 0 67 -29t26 -71q0 -45 -28 -71t-72 -27q-37 0 -68 25t-32 62h53q3 -17 16 -27t31 -10q22 -1 34 13t12 35q0 20 -14 35t-33 15q-31 0 -43 -22l-49 19l41 94q-106 20 -174 102t-67 190q1 122 87 208t207 86 q97 0 173 -55t106 -148h-150q-45 81 -129 81q-73 0 -117 -50t-44 -124t47 -124t120 -50q75 0 123 77h150z"/>
<glyph glyph-name="egrave" horiz-adv-x="640" unicode="è" d="M439 716l-53 -92l-226 125l57 102zM474 325q-10 59 -50 93t-100 34t-102 -34t-55 -93h307zM610 285q0 -32 -8 -67h-431q4 -19 18 -40q48 -74 135 -74q89 0 128 71h140q-27 -85 -103 -139t-165 -54q-124 0 -208 85t-85 209q-1 126 83 212t209 86q121 0 204 -84t83 -205z "/>
<glyph glyph-name="eacute" horiz-adv-x="640" unicode="é" d="M478 749l-226 -125l-53 92l222 135zM474 325q-10 59 -50 93t-100 34t-102 -34t-55 -93h307zM610 285q0 -32 -8 -67h-431q4 -19 18 -40q48 -74 135 -74q89 0 128 71h140q-27 -85 -103 -139t-165 -54q-124 0 -208 85t-85 209q-1 126 83 212t209 86q121 0 204 -84t83 -205z "/>
<glyph glyph-name="ecircumflex" horiz-adv-x="640" unicode="ê" d="M520 636h-145l-53 64l-56 -64h-145l148 138h105zM474 325q-10 59 -50 93t-100 34t-102 -34t-55 -93h307zM610 285q0 -32 -8 -67h-431q4 -19 18 -40q48 -74 135 -74q89 0 128 71h140q-27 -85 -103 -139t-165 -54q-124 0 -208 85t-85 209q-1 126 83 212t209 86 q121 0 204 -84t83 -205z"/>
<glyph glyph-name="edieresis" horiz-adv-x="640" unicode="ë" d="M282 636h-134v133h134v-133zM492 636h-133v133h133v-133zM474 325q-10 59 -50 93t-100 34t-102 -34t-55 -93h307zM610 285q0 -32 -8 -67h-431q4 -19 18 -40q48 -74 135 -74q89 0 128 71h140q-27 -85 -103 -139t-165 -54q-124 0 -208 85t-85 209q-1 126 83 212t209 86 q121 0 204 -84t83 -205z"/>
<glyph glyph-name="igrave" horiz-adv-x="240" unicode="ì" d="M214 716l-53 -92l-226 125l57 102zM186 0h-133v555h133v-555z"/>
<glyph glyph-name="iacute" horiz-adv-x="240" unicode="í" d="M303 749l-226 -125l-53 92l222 135zM186 0h-133v555h133v-555z"/>
<glyph glyph-name="icircumflex" horiz-adv-x="240" unicode="î" d="M320 636h-145l-53 64l-56 -64h-145l148 138h105zM186 0h-133v555h133v-555z"/>
<glyph glyph-name="idieresis" horiz-adv-x="240" unicode="ï" d="M82 636h-134v133h134v-133zM292 636h-133v133h133v-133zM186 0h-133v555h133v-555z"/>
<glyph glyph-name="eth" horiz-adv-x="640" unicode="ð" d="M484 276q0 68 -46 122t-114 54q-70 0 -117 -52t-47 -123t46 -122t117 -51q69 0 115 51t46 121zM616 295q0 -133 -81 -223t-212 -90q-122 0 -209 87t-87 208q1 123 87 209t209 87q30 0 52 -11l2 2q-32 30 -66 53l-151 -45l-86 56l144 44q-52 25 -106 41l150 41 q38 -11 91 -40l131 40l86 -60l-132 -39q178 -150 178 -360z"/>
<glyph glyph-name="ntilde" d="M497 683q-59 -47 -114 -47q-25 0 -73 14t-72 13q-40 0 -80 -20l-54 81q57 43 116 43q26 -1 74 -15t73 -14q41 0 76 23zM547 0h-133v274q0 178 -112 178q-57 0 -91 -49q-24 -35 -24 -139v-264h-133v555h123v-48q69 67 152 67q46 0 92 -21t75 -56q51 -62 51 -189v-308z" unicode="ñ"/>
<glyph glyph-name="ograve" horiz-adv-x="640" unicode="ò" d="M439 716l-53 -92l-226 125l57 102zM482 276q0 68 -46 122t-115 54t-116 -53t-47 -122q0 -71 46 -122t117 -51q69 0 115 51t46 121zM615 279q0 -125 -84 -211t-210 -86q-122 0 -209 87t-87 208q1 123 87 210t209 87t209 -86t85 -209z"/>
<glyph glyph-name="oacute" horiz-adv-x="640" unicode="ó" d="M478 749l-226 -125l-53 92l222 135zM482 276q0 68 -46 122t-115 54t-116 -53t-47 -122q0 -71 46 -122t117 -51q69 0 115 51t46 121zM615 279q0 -125 -84 -211t-210 -86q-122 0 -209 87t-87 208q1 123 87 210t209 87t209 -86t85 -209z"/>
<glyph glyph-name="ocircumflex" horiz-adv-x="640" unicode="ô" d="M520 636h-145l-53 64l-56 -64h-145l148 138h105zM482 276q0 68 -46 122t-115 54t-116 -53t-47 -122q0 -71 46 -122t117 -51q69 0 115 51t46 121zM615 279q0 -125 -84 -211t-210 -86q-122 0 -209 87t-87 208q1 123 87 210t209 87t209 -86t85 -209z"/>
<glyph glyph-name="otilde" horiz-adv-x="640" unicode="õ" d="M517 683q-59 -47 -114 -47q-25 0 -73 14t-72 13q-40 0 -80 -20l-54 81q57 43 116 43q26 -1 74 -15t73 -14q41 0 76 23zM482 276q0 68 -46 122t-115 54t-116 -53t-47 -122q0 -71 46 -122t117 -51q69 0 115 51t46 121zM615 279q0 -125 -84 -211t-210 -86q-122 0 -209 87 t-87 208q1 123 87 210t209 87t209 -86t85 -209z"/>
<glyph glyph-name="odieresis" horiz-adv-x="640" unicode="ö" d="M282 636h-134v133h134v-133zM492 636h-133v133h133v-133zM482 276q0 68 -46 122t-115 54t-116 -53t-47 -122q0 -71 46 -122t117 -51q69 0 115 51t46 121zM615 279q0 -125 -84 -211t-210 -86q-122 0 -209 87t-87 208q1 123 87 210t209 87t209 -86t85 -209z"/>
<glyph glyph-name="divide" d="M360 -20h-120v120h120v-120zM552 193h-504v120h504v-120zM360 406h-120v120h120v-120z" unicode="÷"/>
<glyph glyph-name="oslash" horiz-adv-x="660" unicode="ø" d="M375 445q-20 7 -44 7q-69 0 -116 -53t-47 -122q0 -53 27 -96zM492 276q0 51 -25 91l-176 -258q22 -5 40 -5q69 0 115 51t46 121zM625 279q0 -125 -84 -211t-210 -86q-56 0 -111 22l-38 -54l-99 68l37 54q-85 85 -85 205q1 123 87 210t209 87q61 0 116 -24q1 2 19 28 t20 30l99 -69l-40 -58q80 -85 80 -202z"/>
<glyph glyph-name="ugrave" d="M384 716l-53 -92l-226 125l57 102zM544 0h-122v56h-2q-54 -74 -143 -74q-56 0 -106 22t-80 66q-41 59 -41 191v294h133v-283q0 -168 116 -168q33 0 56 15t35 41t16 53q5 27 5 58v284h133v-555z" unicode="ù"/>
<glyph glyph-name="uacute" d="M493 749l-226 -125l-53 92l222 135zM544 0h-122v56h-2q-54 -74 -143 -74q-56 0 -106 22t-80 66q-41 59 -41 191v294h133v-283q0 -168 116 -168q33 0 56 15t35 41t16 53q5 27 5 58v284h133v-555z" unicode="ú"/>
<glyph glyph-name="ucircumflex" d="M500 636h-145l-53 64l-56 -64h-145l148 138h105zM544 0h-122v56h-2q-54 -74 -143 -74q-56 0 -106 22t-80 66q-41 59 -41 191v294h133v-283q0 -168 116 -168q33 0 56 15t35 41t16 53q5 27 5 58v284h133v-555z" unicode="û"/>
<glyph glyph-name="udieresis" d="M262 636h-134v133h134v-133zM472 636h-133v133h133v-133zM544 0h-122v56h-2q-54 -74 -143 -74q-56 0 -106 22t-80 66q-41 59 -41 191v294h133v-283q0 -168 116 -168q33 0 56 15t35 41t16 53q5 27 5 58v284h133v-555z" unicode="ü"/>
<glyph glyph-name="yacute" horiz-adv-x="580" unicode="ý" d="M483 749l-226 -125l-53 92l222 135zM571 555l-319 -740h-143l102 237l-203 503h152l126 -356l134 356h151z"/>
<glyph glyph-name="thorn" horiz-adv-x="660" unicode="þ" d="M496 278q0 70 -46 122t-114 52q-72 0 -118 -52t-46 -122q0 -53 25 -95t72 -63q32 -16 65 -16q70 0 116 52t46 122zM629 280q1 -122 -79 -210t-199 -88q-97 0 -171 71v-238h-133v925h133v-246h2q65 80 169 80q120 0 199 -86t79 -208z"/>
<glyph glyph-name="OE" horiz-adv-x="1060" unicode="Œ" d="M655 365q1 104 -69 183t-173 79q-107 -1 -173 -81t-66 -190q0 -43 18 -87q28 -71 88 -113t136 -43q101 0 170 75t69 177zM1007 0h-357v79q-40 -44 -108 -69t-134 -25q-78 0 -151 34q-103 47 -161 141t-59 209q0 117 58 211t162 141q73 34 151 34q67 0 134 -25t108 -70v80 h357v-128h-220v-181h208v-128h-208v-175h220v-128z"/>
<glyph glyph-name="oe" horiz-adv-x="1080" unicode="œ" d="M486 277q0 71 -46 123t-116 52q-67 0 -114 -51t-47 -119q-1 -72 45 -125t117 -53q69 0 115 52t46 121zM915 325q-14 57 -55 92t-98 35q-58 0 -98 -34t-56 -93h307zM1050 288q0 -36 -6 -70h-434q16 -50 58 -82t94 -32q42 0 78 18t53 53h138q-27 -85 -103 -139t-166 -54 q-66 0 -124 30t-95 86q-77 -116 -223 -116q-122 0 -206 86t-84 209q0 121 86 209t206 88q138 0 221 -114q85 114 218 114q119 0 204 -84t85 -202z"/>
<glyph glyph-name="Scaron" horiz-adv-x="520" unicode="Š" d="M460 944l-146 -138h-105l-148 138h145l56 -64l53 64h145zM493 221q0 -104 -68 -170t-172 -66q-99 1 -168 65t-73 162h144q4 -44 30 -72t68 -27q42 0 72 26t30 67q0 18 -4 32t-14 26t-16 18q-8 8 -24 16t-26 12t-30 10q-20 8 -27 11q-51 20 -67 28q-109 57 -109 185 q1 91 63 151t154 60q90 -1 152 -61t67 -150h-140q-7 83 -83 83q-32 0 -54 -21t-22 -54q0 -13 4 -24t7 -19q4 -8 14 -16q9 -8 15 -12t20 -10t20 -8q4 -1 22 -7l21 -7q93 -31 143 -84t51 -144z"/>
<glyph glyph-name="scaron" horiz-adv-x="440" unicode="š" d="M420 774l-146 -138h-105l-148 138h145l56 -64l53 64h145zM421 176q1 -82 -55 -138t-139 -56q-48 0 -93 18t-73 55q-36 45 -42 120h136q16 -71 73 -71q24 0 42 16t18 40q0 17 -8 29q-6 9 -23 18t-31 14t-36 13l-27 9q-124 44 -124 159q-1 74 55 123t131 49q73 0 125 -49 t56 -121h-130q-10 48 -53 48q-21 0 -36 -14t-15 -34q0 -14 8 -24t15 -12q7 -4 23 -10t48 -16q76 -24 116 -60t39 -106z"/>
<glyph glyph-name="Ydieresis" horiz-adv-x="620" unicode="Ÿ" d="M272 806h-134v133h134v-133zM482 806h-133v133h133v-133zM622 740l-244 -467v-273h-137v273l-243 467h150l161 -340l162 340h151z"/>
<glyph glyph-name="circumflex" horiz-adv-x="540" unicode="ˆ" d="M470 631h-145l-53 64l-56 -64h-145l148 138h105z"/>
<glyph glyph-name="tilde" horiz-adv-x="480" unicode="˜" d="M437 683q-59 -47 -114 -47q-25 0 -73 14t-72 13q-40 0 -80 -20l-54 81q57 43 116 43q26 -1 74 -15t73 -14q41 0 76 23z"/>
<glyph glyph-name="uni03BC" horiz-adv-x="630" unicode="μ" d="M558 0h-126v48h-3q-38 -66 -120 -66q-67 0 -104 42v-204h-133v735h133v-262q0 -95 22 -135q28 -54 82 -54q37 0 61 18t36 50q11 32 15 62t4 69v252h133v-555z"/>
<glyph glyph-name="pi" horiz-adv-x="656" unicode="π" d="M596 106l25 -90q-41 -25 -96 -25q-73 1 -107 43t-35 110v263h-102v-257q0 -85 -20 -150h-136q22 67 22 158v248q-37 -6 -87 -28l-37 89q74 40 166 40h426v-100h-98v-251q0 -64 37 -64q12 0 42 14z"/>
<glyph glyph-name="endash" horiz-adv-x="500" unicode="–" d="M465 230h-430v118h430v-118z"/>
<glyph glyph-name="emdash" horiz-adv-x="1000" unicode="—" d="M965 230h-930v118h930v-118z"/>
<glyph glyph-name="quoteleft" horiz-adv-x="280" unicode="‘" d="M205 466h-133v141q0 61 36 97t96 36v-68q-28 -5 -43 -17t-15 -39q0 -11 1 -17h58v-133z"/>
<glyph glyph-name="quotesinglbase" horiz-adv-x="280" unicode="‚" d="M205 -7q1 -61 -35 -97t-97 -37v68q36 7 47 21t11 52h-59v133h133v-140z"/>
<glyph glyph-name="quotedblleft" horiz-adv-x="480" unicode="“" d="M203 466h-133v141q0 61 36 97t96 36v-68q-28 -5 -43 -17t-15 -39v-8t1 -9h58v-133zM410 466h-133v141q-1 61 35 97t97 36v-68q-28 -5 -43 -17t-15 -39q1 -2 1 -8v-9h58v-133z"/>
<glyph glyph-name="quotedblright" horiz-adv-x="480" unicode="”" d="M203 599q1 -61 -35 -97t-97 -36v67q36 7 47 21t11 53h-59v133h133v-141zM410 599q0 -61 -36 -97t-96 -36v67q36 7 47 21t11 53h-59v133h133v-141z"/>
<glyph glyph-name="dagger" horiz-adv-x="560" unicode="†" d="M509 442h-162v-584h-133v584h-163v113h163v185h133v-185h162v-113z"/>
<glyph glyph-name="daggerdbl" horiz-adv-x="560" unicode="‡" d="M509 67h-163v-209h-133v209h-162v112h162v296h-162v112h162v153h133v-153h163v-112h-163v-296h163v-112z"/>
<glyph glyph-name="ellipsis" horiz-adv-x="1000" unicode="…" d="M233 0h-133v133h133v-133zM566 0h-133v133h133v-133zM899 0h-133v133h133v-133z"/>
<glyph glyph-name="perthousand" horiz-adv-x="1280" unicode="‰" d="M285 575q-1 29 -21 49t-48 20q-29 0 -49 -20t-20 -50q1 -28 21 -48t48 -21q28 1 48 21t21 49zM711 166q0 30 -20 50t-49 20q-30 0 -50 -20t-20 -50q0 -28 21 -49t49 -21t48 20t21 50zM1111 166q0 30 -20 50t-49 20q-30 0 -50 -20t-20 -50q0 -28 21 -49t49 -21t48 20 t21 50zM396 574q0 -74 -53 -127t-127 -53t-127 53t-53 127q0 75 52 128t128 53t128 -53t52 -128zM632 740l-307 -740h-101l306 740h102zM822 166q0 -74 -53 -128t-127 -53q-75 0 -128 53t-53 128t53 128t128 53q76 0 128 -53t52 -128zM1222 166q0 -74 -53 -128t-127 -53 q-75 0 -128 53t-53 128t53 128t128 53q76 0 128 -53t52 -128z"/>
<glyph glyph-name="guilsinglleft" horiz-adv-x="240" unicode="‹" d="M190 108l-140 131v101l140 129v-123l-68 -57l68 -58v-123z"/>
<glyph glyph-name="guilsinglright" horiz-adv-x="240" unicode="›" d="M190 239l-140 -131v123l68 58l-68 57v123l140 -129v-101z"/>
<glyph glyph-name="fraction" horiz-adv-x="160" unicode="⁄" d="M282 740l-307 -740h-98l306 740h99z"/>
<glyph glyph-name="Euro" horiz-adv-x="560" unicode="€" d="M541 194q-16 -104 -66 -152q-58 -56 -155 -56q-109 0 -172 76q-48 57 -65 173h-83l34 95h41v40v15h-75l34 95h48q17 127 63 186q67 88 178 88q95 0 154 -61q50 -54 61 -145h-125q-9 42 -26 57q-23 23 -64 23q-59 0 -86 -48q-16 -27 -24 -100h272l-34 -95h-243v-15v-40 h223l-35 -95h-180q9 -57 21 -76q26 -47 88 -47q46 0 69 26q14 15 23 56h124z"/>
<glyph glyph-name="trademark" horiz-adv-x="1000" unicode="™" d="M274 657h-86v-361h-94v361h-85v83h265v-83zM821 296h-94v306h-2l-109 -306h-78l-109 306h-2v-306h-94v444h126l119 -322l118 322h125v-444z"/>
<glyph glyph-name="partialdiff" horiz-adv-x="582" unicode="∂" d="M240 86q58 0 104 72t66 185q-23 67 -90 67q-63 0 -110 -66t-47 -162q0 -44 21 -70t56 -26zM547 472q0 -91 -25 -188q-32 -125 -106 -210t-178 -85q-88 0 -142 55t-54 144q0 142 80 227t184 85q76 0 121 -47q1 11 1 35q0 70 -32 108t-87 38q-45 0 -98 -31l-29 86 q58 39 141 39q103 0 163 -67t61 -189z"/>
<glyph glyph-name="product" horiz-adv-x="721" unicode="∏" d="M645 -224h-123v818h-322v-818h-123v924h568v-924z"/>
<glyph glyph-name="summation" horiz-adv-x="633" unicode="∑" d="M587 -224h-567v62l297 404l-277 390v68h525v-101h-370l252 -354l-269 -368h409v-101z"/>
<glyph glyph-name="minus" d="M552 193h-504v120h504v-120z" unicode="−"/>
<glyph glyph-name="radical" horiz-adv-x="542" unicode="√" d="M543 728l-184 -740h-112l-126 310l-51 -32l-43 68l165 105l107 -267l138 556h106z"/>
<glyph glyph-name="infinity" horiz-adv-x="790" unicode="∞" d="M226 217q53 0 106 77q-49 75 -107 75q-35 0 -53 -22t-18 -55q0 -32 20 -54t52 -21zM627 295q-1 32 -19 53t-52 21q-60 0 -108 -74q54 -78 108 -78q34 1 52 23t19 55zM741 296q1 -76 -49 -128t-128 -53q-98 0 -174 91q-74 -91 -170 -91q-76 0 -128 49t-52 129q0 81 52 130 t126 49q94 0 174 -88q65 88 169 88q79 0 129 -49t51 -127z"/>
<glyph glyph-name="approxequal" d="M403 323q-64 0 -117 32q-54 30 -87 30q-40 0 -86 -71l-80 91q35 47 72 73t90 26q62 0 116 -31q55 -31 89 -31q39 0 86 71l80 -90q-36 -51 -73 -75t-90 -25zM403 95q-64 0 -117 32q-54 30 -87 30q-40 0 -86 -71l-80 91q35 47 72 73t90 26q62 0 116 -31q55 -31 89 -31 q39 0 86 71l80 -90q-36 -51 -73 -75t-90 -25z" unicode="≈"/>
<glyph glyph-name="notequal" d="M552 81h-275l-50 -104h-133l50 104h-96v120h155l50 104h-205v120h264l61 126h133l-61 -126h107v-120h-166l-50 -104h216v-120z" unicode="≠"/>
<glyph glyph-name="lessequal" d="M552 0h-504v120h504v-120zM552 152l-504 188v103l504 187v-126l-335 -115l335 -113v-124z" unicode="≤"/>
<glyph glyph-name="greaterequal" d="M552 0h-504v120h504v-120zM552 340l-504 -188v124l335 113l-335 115v126l504 -187v-103z" unicode="≥"/>
<glyph glyph-name="lozenge" d="M432 350l-132 229l-133 -229l132 -228zM553 351l-202 -351h-103l-201 348l202 352h102z" unicode="◊"/>
</font>
</defs>
</svg>
